img image001 image001 image001 image001 image001 image001 image001 image001 image001 image001 image001 image001 image001 image001 image001 image001
Planets Sun Sun Sun
Статистика раздачи
Автор: mari | Размер: 4.69 ГБ | Добавлен: 28 ноя 2018
Раздают: 44    Качают: 87
Скачать торрент
Скачать торрент

СообщениеДобавлено: 28 ноя 2018 

СеняФедя (1-8 серии из 12)

Перевод: Не требуется, cубтитры: отсутствуют
Формат: WEB-DL 720p, MKV, H.264, AC3
Страна: Россия
Режиссер: Антон Федотов
Жанр: комедия
Всего серий: 12
Продолжительность: 8 ~00:25:00
Год выпуска: 2018

В ролях: Сергей Лавыгин, Михаил Тарабукин, Анна Бегунова, Ирина Серова, Никита Дювбанов, Дмитрий Мазуров, Александра Живова, Вероника Агапова, Галина Коньшина, Алёна Минчук, Кирилл Набатов, Алексей Некрасов (III), Анна Фирсова, Александр Миронов (III), Юлия Васильева, Анастасия Саворенко, Сергей Волков (VII), Ирина Гавра, Юлия Беляева, Леся Кудряшова, Сергей Марухин, Анастасия Шумилкина, Никита Абдулов, Александр Ревенко, Анастасия Крылова

Описание: Сеня и Федя решают открыть собственный бизнес – закусочную на колёсах. Совместная работа не ладится с первого дня, но разойтись друзья не могут, ведь ничто так не объединяет людей, как совместный кредит. Попав в мир деловых отношений, парни сталкиваются не только с проблемой поиска компромиссов, но и с крупной сетью фудтраков, стремящихся вытеснить с улиц всех конкурентов. На фоне борьбы с акулами гастрономического бизнеса друзья не заметят, как поменяются ролями на личной «кухне»: семьянин Сеня попробует на вкус холостяцкую жизнь, а бабник Федя отправится на поиски тихой семейной гавани.

Рейтинг и доп. информация:


Видео: 1280х720 (16:9), 25 fps, AVC MPEG-4 (x264), ~ 3400 kbps , 0.148 bit/pixel
Аудио: 48 kHz, AC3, 2/0 (L,R) ch, ~192 kbps
Внимание! Раздача ведётся путём добавления новых серий. При каждом добавлении создаётся новый торрент.
Чтобы начать докачку новой серии, пользователям необходимо сделать следующее:
1. Остановить скачивание.
2. Удалить старый торрент у себя из клиента (старые серии удалять не надо).
3. Скачать новый торрент и запустить его у себя в клиенте вместо старого, при этом указать клиенту путь в старую папку куда и должно происходить скачивание новых серий. Ваш клиент при этом должен произвести хеширование (проверку) старой папки и будет докачивать только те серии, которых у вас ещё нет. Старые серии при этом не удаляются, а продолжают раздаваться! Eсли вы уже удалили старые серии, то предотвратить повторную закачку старых серий можно, отжав галочку в соответствующих местах при запуске нового торрента.


Общее
Уникальный идентификатор : 214240207141299786937027717538773290180 (0xA12D29BBD7F3E450807F664A2BE54CC4)
Полное имя : C:\SenyaFedya.2018.WEB-DL.(720p).Getty\SenyaFedya.e01.2018.WEB-DL.(720p).Getty.mkv
Формат : Matroska
Версия формата : Version 2
Размер файла : 623 Мбайт
Продолжительность : 23 м. 43 с.
Режим общего битрейта : Переменный
Общий поток : 3674 Кбит/сек
Дата кодирования : UTC 2018-11-19 10:11:21
Программа кодирования : mkvmerge v4.0.0 ('The Stars were mine') сборка от Jun 6 2010 16:18:42
Библиотека кодирования : libebml v1.0.0 + libmatroska v1.0.0

Видео
Идентификатор : 1
Формат : AVC
Формат/Информация : Advanced Video Codec
Профиль формата :
Настройки формата : CABAC / 5 Ref Frames
Параметр CABAC формата : Да
Параметр RefFrames формата : 5 кадров
Идентификатор кодека : V_MPEG4/ISO/AVC
Продолжительность : 23 м. 43 с.
Вид битрейта : Переменный
Битрейт : 3400 Кбит/сек
Максимальный битрейт : 40,0 Мбит/сек
Ширина : 1280 пикселей
Высота : 720 пикселей
Соотношение сторон : 16:9
Режим частоты кадров : Постоянный
Частота кадров : 25,000 кадров/сек
Цветовое пространство : YUV
Субдискретизация насыщенности : 4:2:0
Битовая глубина : 8 бит
Тип развёртки : Прогрессивная
Бит/(Пиксели*Кадры) : 0.148
Размер потока : 578 Мбайт (93%)
Язык : Russian
Default : Да
Forced : Нет

Аудио
Идентификатор : 2
Формат : AC-3
Формат/Информация : Audio Coding 3
Коммерческое название : Dolby Digital
Идентификатор кодека : A_AC3
Продолжительность : 23 м. 43 с.
Вид битрейта : Постоянный
Битрейт : 192 Кбит/сек
Каналы : 2 канала
Channel layout : L R
Частота : 48,0 КГц
Частота кадров : 31,250 кадров/сек (1536 SPF)
Битовая глубина : 16 бит
Метод сжатия : С потерями
Размер потока : 32,6 Мбайт (5%)
Язык : Russian
ServiceKind/String : Complete Main
Default : Да
Forced : Нет








   Похожие торренты   Торрент   Размер 
В этой теме нет новых непрочитанных сообщений. СеняФедя (1-2 серии из 12) (Антон Федотов) [2018, комедия, WEB-DL 720p]

0 | 0

1.18 ГБ

В этой теме нет новых непрочитанных сообщений. СеняФедя (1-11 серии из 12) (Антон Федотов) [2018, комедия, WEB-DL 720p]

0 | 0

6.46 ГБ

В этой теме нет новых непрочитанных сообщений. СеняФедя (1-10 серии из 12) (Антон Федотов) [2018, комедия, WEB-DL 720p]

0 | 0

5.87 ГБ

В этой теме нет новых непрочитанных сообщений. СеняФедя (1-6 серии из 12) (Антон Федотов) [2018, комедия, WEB-DL 720p]

18 | 24

3.53 ГБ

В этой теме нет новых непрочитанных сообщений. СеняФедя (1-3 серии из 12) (Антон Федотов) [2018, комедия, WEB-DL 720p]

0 | 0

1.77 ГБ

В этой теме нет новых непрочитанных сообщений. СеняФедя (1-5 серии из 12) (Антон Федотов) [2018, комедия, WEB-DL 720p]

8 | 4

2.94 ГБ

В этой теме нет новых непрочитанных сообщений. СеняФедя (1-9 серии из 12) (Антон Федотов) [2018, комедия, WEB-DL 720p]

75 | 103

5.28 ГБ




Вы не можете начинать темы
Вы не можете отвечать на сообщения
Вы не можете редактировать свои сообщения
Вы не можете удалять свои сообщения
Вы не можете добавлять вложения

Перейти:  
Для Мосгорсуда, Роскомнадзора и рекламодателей: mosgorsud-torrent[собачка]yandex.ru
 Вход
ppkBB3cker v.2 © 2008-2014 @ PPK
[ Time : 0.033s | 16 Queries | GZIP : Off ]

Торрент трекер RS-torrent.com
cron Watch movie | Piano Tiles 2™ | فول آلبوم گلوريا روحاني